Ir para conteúdo
  • Cadastre-se

A partir do dia 19/11/2018, o foco do Fórum do BABOO é apenas Windows e Segurança Digital conforme informado no início de 2018.
As áreas que não têm relação com esses dois assuntos foram arquivadas e seus tópicos estão disponíveis para consulta na área Tópicos Antigos.

Conheça as novidades de 2019 para o BABOO e Fórum do BABOO

bzell

Arquivo .AVI feito em Câmera de Vigilância não está abrindo.

Mensagem Recomendada

Preciso abrir um vídeo .AVI feito em uma câmera de segurança, porem o mesmo nao aparece imagem alguma, só Som.

Tentei: Winamp, XP codec pack, k-lite codec pack, bsplayer e afins.

Baixei o GSPOT que indica que o codec GMP4 está instalado. Segue:

printka.jpg

Baixei umas 5 versões do GMP4 e nada..

Seguem as informações do vídeo:

General

Complete name : C:\Users\Administrador\Desktop\A partir das 15horas até as 17horas.Avi

Format : AVI

Format/Info : Audio Video Interleave

File size : 416 MiB

Duration : 39mn 42s

Overall bit rate : 1 464 Kbps

Video

ID : 0

Format : GeoVision Advanced MPEG-4

Codec ID : GMP4

Duration : 39mn 32s

Bit rate : 1 390 Kbps

Width : 720 pixels

Height : 480 pixels

Display aspect ratio : 3:2

Frame rate : 30.000 fps

Standard : NTSC

Bits/(Pixel*Frame) : 0.134

Stream size : 393 MiB (95%)

Audio

ID : 2

Format : PCM

Format settings, Sign : Unsigned

Codec ID : 1

Duration : 39mn 42s

Bit rate mode : Constant

Bit rate : 64.0 Kbps

Channel(s) : 1 channel

Sampling rate : 8 000 Hz

Bit depth : 8 bits

Stream size : 18.2 MiB (4%)

Interleave, duration : 936 ms (28.07 video frames)

alguém poderia me ajudar? Grato!

Compartilhar este post


Link para o post
Compartilhar em outros sites

Bom dia pessoal!
Depois de muito pesquisar, consegui encontrar um player completo que consegue rodar o codec/extensão para GMP4 ou GeoMP4.
O conhecido MPLAYER.
Segue abaixo o link:

https://www.techspot.com/downloads/5141-mplayer-for-Windows.html

Bom dia pessoal!
Depois de muito pesquisar, consegui encontrar um player completo que consegue rodar o codec/extensão para GMP4 ou GeoMP4.
O conhecido MPLAYER.
Segue abaixo o link:

https://www.techspot.com/downloads/5141-mplayer-for-Windows.html

http://www.mplayerhq.hu/DOCS/codecs-status.html

Compartilhar este post


Link para o post
Compartilhar em outros sites

×